如何使用sox获得音频文件采样率?
收藏

我想使用sox获取给定音频文件的采样率。找不到命令行来执行此操作。

最佳答案

只需使用:

soxi <filename>

要么

sox --i <filename>

产生如下输出:

Input File     : 'final.flac'
Channels       : 4
Sample Rate    : 44100
Precision      : 16-bit
Duration       : 00:00:11.48 = 506179 samples = 860.849 CDDA sectors
File Size      : 2.44M
Bit Rate       : 1.70M
Sample Encoding: 16-bit FLAC
Comment        : 'Comment=Processed by SoX'

如果您使用的是默认不包含soxi的win32版本,则使用后一种。要仅获取采样率,只需使用:

soxi -r <filename>

要么

sox --i -r <filename>

这将单独返回采样率。

    公众号
    关注公众号订阅更多技术干货!